<?xml version="1.0" standalone="no"?>
<!DOCTYPE svg PUBLIC "-//W3C//DTD SVG 1.1//EN" "http://www.w3.org/Graphics/SVG/1.1/DTD/svg11.dtd" >
<svg xmlns="http://www.w3.org/2000/svg">
<metadata>Generated by IcoMoon</metadata>
<defs>
<font id="icomoon" horiz-adv-x="1024">
<font-face units-per-em="1024" ascent="960" descent="-64" />
<missing-glyph horiz-adv-x="1024" />
<glyph unicode="&#x20;" d="" />
<glyph unicode="&#x41;" glyph-name="pizza-menu-icon" d="M561.131 654.869c-72.404 51.717-155.152 93.091-248.242 124.121-46.545 15.515-87.919 20.687-134.465 31.030l-144.808-874.020 811.96 429.253c-20.687 36.202-46.545 72.404-72.404 108.606-62.061 72.404-134.465 134.465-212.040 181.010zM240.484 189.414c-15.515-20.687-41.374-25.859-62.061-10.343-25.859 15.515-31.030 41.374-15.515 62.061s41.374 25.859 67.232 10.343c20.687-15.515 25.859-41.374 10.343-62.061zM271.515 494.545c-31.030 20.687-36.202 56.889-15.515 87.919 20.687 25.859 56.889 36.202 87.919 15.515s36.202-62.061 15.515-87.919c-15.515-25.859-62.061-36.202-87.919-15.515zM524.929 287.677c-36.202-46.545-103.434-62.061-155.152-25.859-51.717 31.030-62.061 98.263-25.859 144.808s98.263 56.889 155.152 25.859c46.545-36.202 62.061-98.263 25.859-144.808zM990.383 427.313c-5.172 10.343-98.263 201.697-336.162 356.849-232.727 155.152-449.939 175.838-470.626 175.838l-5.172-108.606c15.515 0 201.697-20.687 413.737-155.152 201.697-139.636 284.444-305.131 294.788-315.475z" />
<glyph unicode="&#x42;" glyph-name="quote" d="M392.314 773.819c-33.247 29.922-79.792 53.195-136.312 56.519s-106.39-6.649-136.312-23.273c-56.519-26.597-109.714-96.416-116.364-166.234-3.325-59.844 9.974-126.338 43.221-169.558 36.571-43.221 106.39-86.442 189.506-79.792 19.948 0 29.922 9.974 56.519 6.649 19.948-19.948 16.623-53.195 9.974-76.468-6.649-26.597-13.299-56.519-23.273-73.143-23.273-36.571-63.169-59.844-103.065-73.143-16.623-3.325-43.221-6.649-53.195-13.299-9.974-19.948-9.974-83.117 9.974-96.416 9.974-6.649 26.597 0 43.221 3.325 66.494 13.299 103.065 36.571 149.61 73.143 93.091 69.818 159.584 189.506 169.558 332.468 3.325 63.169-9.974 123.013-26.597 172.883-16.623 53.195-43.221 99.74-76.468 126.338zM964.158 723.949c-43.221 56.519-96.416 99.74-182.857 106.39-79.792 6.649-136.312-16.623-176.208-53.195-29.922-26.597-66.494-79.792-73.143-132.987-3.325-56.519 6.649-119.688 36.571-162.909 33.247-49.87 109.714-93.091 196.156-89.766 16.623 0 33.247 6.649 56.519 6.649 26.597-19.948 13.299-56.519 9.974-83.117-6.649-26.597-16.623-56.519-33.247-76.468-16.623-29.922-59.844-49.87-93.091-59.844-19.948-6.649-46.545-6.649-53.195-16.623-6.649-13.299-6.649-76.468 6.649-89.766 9.974-6.649 33.247-3.325 49.87 0 19.948 6.649 36.571 6.649 49.87 13.299 49.87 16.623 109.714 63.169 146.286 99.74 33.247 33.247 59.844 79.792 83.117 129.662 19.948 53.195 36.571 116.364 36.571 179.532 0 79.792-19.948 169.558-59.844 229.403z" />
<glyph unicode="&#x43;" glyph-name="edit" d="M986.667 760.001c-16 26.667-48 48-74.667 80-32 32-58.667 64-85.333 80-10.667 5.333-26.667 10.667-37.333 10.667-5.333 0-10.667 0-10.667 0-48-5.333-64-37.333-90.667-64 80-85.333 165.333-170.667 250.667-256 32 37.333 85.333 85.333 48 149.333zM874.667 600.001c-74.667 74.667-165.333 165.333-229.333 229.333-21.333-16-37.333-37.333-58.667-53.333 85.333-90.667 170.667-176 256-261.333 10.667 5.333 21.333 16 32 26.667 10.667 5.333 32 21.333 32 26.667-5.333 5.333-32 32-32 32zM778.667 498.667c0 5.333-21.333 26.667-26.667 26.667 0 0-21.333-21.333-26.667-21.333-117.333-117.333-224-229.333-341.333-341.333-16-16-32-42.667-53.333-48-5.333-5.333-26.667-10.667-37.333-10.667-26.667-5.333-53.333-16-85.333-26.667-10.667 0-26.667-10.667-37.333-10.667s-37.333 32-42.667 37.333c0 10.667 10.667 32 16 48 10.667 32 16 53.333 21.333 80 5.333 16 5.333 32 10.667 42.667 5.333 21.333 37.333 37.333 53.333 53.333 117.333 117.333 240 240 357.333 357.333-10.667 21.333-32 37.333-42.667 53.333-133.333-122.667-266.667-266.667-400-394.667-10.667-10.667-21.333-21.333-26.667-26.667-10.667-21.333-21.333-53.333-26.667-80-16-53.333-32-101.333-48-160-10.667-37.333-42.667-101.333 16-112 0 0 5.333 0 10.667 0 85.333 26.667 181.333 53.333 272 85.333 16 0 32 5.333 42.667 5.333 5.333 5.333 16 21.333 26.667 32 122.667 133.333 266.667 261.333 394.667 389.333-5.333 5.333-16 10.667-26.667 21.333zM218.667 221.334c21.333 0 42.667-5.333 58.667-10.667 5.333-21.333 5.333-37.333 10.667-53.333 133.333 133.333 277.333 277.333 416 416-26.667 21.333-48 48-69.333 64-122.667-122.667-245.333-245.333-368-362.667-16-16-32-32-48-53.333z" />
<glyph unicode="&#x44;" glyph-name="store-locator-menu" d="M484.407 960c18.395 0 36.79 0 55.186 0 168.623-24.527 263.665-119.569 282.060-294.323 0-3.066 0-6.132 0-9.198-12.263-147.162-70.515-275.928-125.701-392.431s-116.503-223.808-183.952-328.048c-95.042 159.425-205.413 334.18-266.731 533.461-18.395 52.12-33.725 107.305-36.79 162.491-6.132 64.383 9.198 116.503 33.725 165.557 39.856 82.778 122.635 150.228 242.204 162.491zM380.167 745.389c-61.317-104.24 36.79-236.072 159.425-211.545 67.449 15.329 134.898 79.713 113.437 171.689-3.066 21.461-15.329 39.856-21.461 49.054-24.527 36.79-67.449 64.383-125.701 64.383-64.383-3.066-104.24-36.79-125.701-73.581z" />
<glyph unicode="&#x45;" glyph-name="shopping-bag-full-color" d="M700.322 704.981h-572.812l-51.004-768.981h870.988l-47.080 768.981h-168.705v43.157c0 121.624-94.161 211.862-215.785 211.862-117.701 0-215.785-90.238-215.785-211.862v-211.862h90.238v82.391h172.628v86.314h-172.628v43.157c0 74.544 54.927 129.471 129.471 129.471 70.621 0 129.471-54.927 129.471-129.471v-211.862h90.238v82.391h90.238" />
<glyph unicode="&#x46;" glyph-name="search" d="M994.743 9.143l-204.8 214.552c63.39 78.019 107.276 175.543 107.276 287.695 0 248.686-195.048 448.61-433.981 448.61-243.81 0-433.981-199.924-433.981-448.61 0-243.81 190.171-443.733 433.981-443.733 97.524 0 180.419 29.257 253.562 82.895l204.8-214.552zM78.019 511.39c0 219.429 170.667 394.972 385.219 394.972 209.676 0 380.343-175.543 380.343-394.972s-170.667-390.095-380.343-390.095c-214.552 0-385.219 170.667-385.219 390.095z" />
<glyph unicode="&#x47;" glyph-name="scooter" d="M992.001 306.667c-16 69.333-80 96-165.333 101.333 0 48-26.667 69.333-48 101.333-48 64-80 133.333-106.667 218.667 32 0 69.333-10.667 80 10.667 10.667 16 5.333 53.333 5.333 69.333-5.333 16-26.667 16-42.667 21.333 0 0-5.333 0-10.667 0-42.667-10.667-80-16-85.333-53.333-21.333-10.667-37.333-21.333-64-32-16-5.333-53.333-16-53.333-37.333 0-26.667 42.667-16 58.667-10.667 21.333 10.667 37.333 26.667 58.667 32 21.333-90.667 74.667-218.667 21.333-325.333-32-53.333-96-74.667-186.667-74.667-74.667 5.333-101.333 37.333-90.667 122.667 5.333 16 10.667 37.333 5.333 48-16 16-53.333 0-74.667-10.667-74.667-16-186.667-10.667-250.667 10.667-16-37.333-42.667-106.667-32-160 10.667-26.667 37.333-37.333 58.667-48-48-106.667 26.667-208 112-218.667 85.333-5.333 170.667 53.333 160 154.667 112-10.667 240-5.333 320 21.333-10.667-32 5.333-64 42.667-58.667 10.667-69.333 74.667-117.333 154.667-106.667 96 10.667 165.333 122.667 112 218.667 5.333 0 16 0 21.333 5.333zM192.001 141.334c-64 0-106.667 69.333-69.333 133.333 16-5.333 37.333-10.667 58.667-16 0-5.333-16-16-16-26.667 0-16 5.333-32 26.667-37.333 26.667 0 37.333 37.333 53.333 48 10.667 0 21.333 0 32 0 5.333-64-37.333-101.333-85.333-101.333zM842.668 141.334c-37.333 0-74.667 32-85.333 69.333 0 16 0 42.667 16 53.333 26.667-16 32-69.333 69.333-69.333 16 0 32 10.667 32 26.667 0 32-42.667 42.667-42.667 64 16 0 32 16 48 10.667 32-5.333 48-42.667 48-74.667 0-37.333-37.333-80-85.333-80zM85.334 536.001c37.333 0 74.667 0 106.667 0 74.667 0 138.667 0 186.667 26.667 5.333 58.667-85.333 42.667-144 42.667-74.667 0-138.667 5.333-186.667 0-21.333-5.333-42.667-21.333-37.333-42.667 0-16 58.667-21.333 74.667-26.667z" />
<glyph unicode="&#x48;" glyph-name="ready-delivery" d="M111.256 237.977c24.976 0 49.951 0 61.304 0-4.541-15.894-2.271-38.599 2.271-52.222-15.894-4.541-36.328 6.812-40.868-9.082-6.812-15.894 22.705-11.353 36.328-11.353 229.32 0 456.371 0 687.962 0 9.082 0 38.599-6.812 38.599 11.353-2.271 15.894-29.517 4.541-40.868 9.082 0 18.164-6.812 34.058-11.353 52.222 11.353 0 38.599 0 68.115 0 24.976 0 56.763-6.812 59.033 6.812 2.271 20.435-15.894 9.082-34.058 13.623-4.541 242.944-120.337 431.396-340.576 469.995-18.164 2.271-40.868 0-34.058 20.435 4.541 11.353 13.623 4.541 31.787 6.812 2.271 2.271 0 13.623 2.271 20.435-52.222 0-104.443 0-156.665 0 0-6.812 0-11.353 0-18.164 9.082-6.812 36.328 4.541 40.868-6.812 0-27.246-40.868-20.435-61.304-24.976-208.887-49.951-317.87-215.698-326.953-469.995-15.894-2.271-31.787 6.812-34.058-9.082-2.271-18.164 27.246-9.082 52.222-9.082zM640.284 185.756c-143.042-4.541-297.436 0-445.019-2.271-4.541 13.623-11.353 29.517-4.541 45.41 0 4.541 0 6.812 4.541 9.082 145.313 0 292.895 0 440.479 0 4.541-15.894 11.353-34.058 4.541-52.222zM658.448 185.756c4.541 15.894 2.271 38.599-4.541 52.222 54.492 0 108.984 0 163.477 0 9.082-15.894 18.164-29.517 18.164-52.222-59.033 0-118.067 0-177.1 0zM497.242 753.383c15.894 0 31.787 0 47.681 0 0-6.812 0-13.623 0-20.435-15.894 0-31.787 0-47.681 0 0 6.812 0 13.623 0 20.435zM206.617 571.742c68.115 86.279 183.911 152.124 342.846 143.042 120.337-6.812 211.156-65.844 270.191-143.042 63.574-79.468 97.631-186.181 99.902-313.33-267.919 0-538.11 0-806.028 0 0 131.69 31.787 233.863 93.091 313.33zM560.816 535.414c-2.271 40.868-24.976 70.386-59.033 95.361 0 2.271 0 2.271-4.541 2.271 49.951-72.655-36.328-145.313-15.894-217.968 9.082-36.328 31.787-72.655 56.763-102.173-27.246 81.738 34.058 143.042 22.705 222.509zM513.135 394.642c-38.599 49.951 9.082 111.255 18.164 165.746zM281.543 560.389c-43.14-43.14-81.738-90.819-99.902-156.665 9.082 0 11.353-4.541 18.164-4.541 22.705 59.033 52.222 108.984 95.361 145.313 0 6.812-4.541 11.353-13.623 15.894zM424.587 478.651c-4.541 24.976-22.705 59.033-47.681 70.386 34.058-49.951-20.435-102.173-15.894-152.124 2.271-34.058 27.246-59.033 43.14-84.009-15.894 63.574 27.246 108.984 20.435 165.746zM388.257 390.101c-15.894 24.976 9.082 59.033 13.623 86.279 11.353-29.517-9.082-61.304-13.623-86.279zM678.883 474.109c-4.541 24.976-22.705 61.304-47.681 74.927 31.787-54.492-22.705-102.173-15.894-156.665 4.541-29.517 22.705-52.222 43.14-77.197-18.164 59.033 24.976 106.714 20.435 158.936zM640.284 390.101c-13.623 24.976 6.812 61.304 15.894 86.279 9.082-34.058-9.082-61.304-15.894-86.279zM65.846 144.886c-11.353 0-22.705 0-34.058 0-6.812 0-22.705 6.812-24.976-6.812-6.812-18.164 11.353-13.623 24.976-13.623 11.353 0 20.435 0 34.058 0 20.435 0 40.868 0 63.574 0 40.868 0 84.009 0 124.878 0 86.279 0 172.558 0 256.568 0 172.558 0 340.576 0 513.134 0 0 6.812 0 13.623 0 20.435-315.601 0-640.282 0-958.153 0z" />
<glyph unicode="&#x49;" glyph-name="veggie-icon" d="M42.877 939.822c-5.044 5.044 0 10.089 5.044 10.089 221.951 10.089 398.502-25.222 559.921-80.709 166.463-50.443 302.66-151.33 353.103-322.837 0-25.222 10.089-45.399 10.089-70.621 15.133-141.241-20.177-297.616-90.798-413.635-25.222-35.31-45.399-80.709-90.798-105.931-50.443 277.438-166.463 489.3-337.97 635.586 15.133-40.355 40.355-80.709 65.576-126.108 20.177-40.355 40.355-90.798 55.488-136.197 35.31-95.842 75.665-201.773 80.709-312.749 0-20.177-5.044-60.532-30.266-70.621-30.266-10.089-100.887 35.31-126.108 45.399-176.552 90.798-302.66 277.438-332.926 519.566-20.177 151.33 30.266 353.103-121.064 428.768z" />
<glyph unicode="&#x61;" glyph-name="burger" d="M980.779 374.859c-6.649 19.948-33.247 29.922-39.896 59.844-6.649 23.273 3.325 36.571 0 63.169 83.117 19.948 13.299 69.818 0 99.74-9.974 29.922-9.974 59.844-19.948 83.117-29.922 69.818-93.091 129.662-186.182 139.636-79.792 9.974-162.909 0-242.701 0-86.442 0-159.584 9.974-246.026 0-123.013-13.299-196.156-116.364-202.805-226.078-6.649-23.273-43.221-39.896-36.571-66.494 3.325-19.948 29.922-9.974 36.571-33.247 0-19.948 0-43.221 0-66.494-26.597-29.922-43.221-46.545-36.571-89.766 3.325-29.922 33.247-36.571 36.571-59.844 9.974-36.571-6.649-79.792 0-116.364 16.623-96.416 146.286-76.468 259.325-76.468 136.312 0 249.351 0 375.688 0 66.494 0 132.987-9.974 189.506 0 83.117 9.974 76.468 109.714 76.468 196.156 19.948 26.597 43.221 46.545 36.571 93.091zM249.35 783.794c63.169 6.649 156.26 0 242.701 0s176.208 6.649 246.026 0c99.74-13.299 149.61-96.416 162.909-176.208-275.948 0-545.247 0-821.195 0 16.623 86.442 63.169 162.909 169.558 176.208zM73.142 571.015c236.052 0 531.948 0 784.623 0 29.922 0 66.494 6.649 76.468-29.922-39.896-23.273-99.74-6.649-126.338 13.299-49.87-43.221-146.286-43.221-196.156 0-63.169-49.87-172.883-49.87-232.727 0-53.195-39.896-146.286-46.545-196.156 0-29.922-16.623-89.766-36.571-129.662-13.299 0 13.299 13.299 23.273 19.948 29.922zM900.986 491.223c0-19.948 0-39.896 0-59.844-275.948 0-545.247 0-821.195 0 0 19.948 0 39.896 0 59.844 43.221-3.325 69.818 6.649 93.091 19.948 46.545-36.571 156.26-43.221 199.481 0 59.844-43.221 176.208-49.87 236.052 0 46.545-36.571 152.935-43.221 199.481 0 26.597-9.974 53.195-23.273 93.091-19.948zM884.363 135.483c-26.597-23.273-132.987-16.623-189.506-16.623-142.961 0-265.974 0-405.61 0-63.169 0-162.909-6.649-189.506 13.299-29.922 19.948-19.948 89.766-23.273 136.312 0 3.325 0 9.974 6.649 9.974 272.623 0 541.922 0 817.87 0-3.325-39.896 9.974-116.364-16.623-142.961zM728.103 315.015c-166.234 0-299.221 0-462.13 0-49.87 0-196.156-9.974-219.429 16.623-9.974 16.623-9.974 46.545 16.623 59.844 36.571 16.623 172.883 0 226.078 0 162.909 0 285.922 0 448.831 0 79.792 0 229.403 26.597 202.805-53.195-13.299-36.571-156.26-23.273-212.779-23.273zM322.493 713.976c33.247-26.597 66.494 19.948 43.221 43.221-36.571 19.948-63.169-16.623-43.221-43.221zM272.623 730.6c-3.325 9.974-13.299 16.623-29.922 9.974-26.597-6.649-26.597-16.623-26.597-26.597 3.325-43.221 83.117-33.247 56.519 16.623zM275.947 650.807c3.325-16.623 23.273-26.597 49.87-16.623 39.896 49.87-59.844 69.818-49.87 16.623z" />
<glyph unicode="&#x62;" glyph-name="drinks" d="M631.527 795.875c89.199-21.408 206.941-185.533 99.902-264.028 32.111-28.544 53.519-64.223 39.247-114.174-7.136-10.704-39.247-39.247-39.247-42.815 0-14.272 39.247-39.247 42.815-60.655 7.136-32.111-3.568-53.519-17.84-74.927-7.136-7.136-24.976-24.976-24.976-24.976 0-7.136 39.247-46.383 42.815-60.655 17.84-96.334-7.136-185.533-92.767-199.805-49.951-3.568-121.31 0-178.397 0-121.31 0-246.188-17.84-264.028 78.495-14.272 74.927-3.568 149.854 42.815 178.397-24.976 32.111-49.951 46.383-42.815 103.47 3.568 21.408 42.815 46.383 42.815 57.087s-39.247 35.679-42.815 60.655c-7.136 46.383 14.272 71.359 42.815 99.902-96.334 85.631 0 242.62 99.902 260.46 3.568 71.359-10.704 135.582 42.815 153.422 39.247 14.272 121.31 10.704 160.557 7.136 64.223-21.408 39.247-92.767 46.383-156.99zM428.154 902.913c-7.136-24.976-3.568-60.655-7.136-92.767 57.087 0 114.174 0 167.693 0-3.568 32.111 3.568 71.359-3.568 92.767-35.679 10.704-121.31 10.704-156.99 0zM713.59 178.621c-17.84 14.272-67.791 10.704-64.223 35.679 3.568 17.84 35.679 14.272 53.519 21.408 35.679 21.408 39.247 82.063 7.136 103.47-28.544 21.408-67.791 3.568-60.655 35.679 7.136 17.84 49.951 17.84 64.223 28.544 35.679 28.544 17.84 85.631-10.704 99.902-14.272 10.704-46.383 3.568-53.519 21.408-3.568 28.544 57.087 28.544 67.791 39.247 42.815 39.247-7.136 128.446-35.679 153.422-74.927 71.359-289.003 74.927-363.93-7.136-32.111-35.679-67.791-124.878-14.272-153.422 17.84-10.704 57.087 0 53.519-28.544 0-21.408-46.383-21.408-64.223-32.111-21.408-21.408-28.544-67.791 0-89.199 14.272-14.272 64.223-14.272 64.223-32.111 3.568-32.111-35.679-14.272-64.223-39.247-32.111-24.976-17.84-82.063 14.272-99.902 39.247-21.408 49.951 3.568 49.951-24.976 0-24.976-64.223-28.544-71.359-46.383-14.272-21.408-10.704-107.038-7.136-124.878 14.272-67.791 124.878-46.383 224.78-46.383 114.174 0 206.941-17.84 228.348 42.815-3.568 49.951 17.84 110.606-17.84 142.718z" />
<glyph unicode="&#x63;" glyph-name="fries" d="M58.101 567.83c0 3.631 0 3.631 0 7.262 7.262 21.787 47.206 10.894 76.255 14.525-7.262 90.78-36.312 177.929-32.681 265.078 47.206 10.894 101.674 18.156 148.879 32.681 3.631 18.156-10.894 47.206 7.262 61.73 50.837 3.631 123.461 10.894 181.56 3.631 3.631-18.156 7.262-36.312 7.262-58.099 39.943 0 83.518 0 123.461 0 7.262 18.156-3.631 54.468 14.525 61.73 54.468 0 137.986 0 181.56-25.418 0-36.312-10.894-83.518-7.262-116.199 54.468-7.262 127.092 3.631 156.142-29.050-3.631-65.362-25.418-123.461-29.050-192.454 25.418-3.631 61.73 3.631 79.886-7.262-50.837-221.503-112.567-435.745-181.56-642.723-174.298-7.262-370.383-7.262-544.681 0-65.362 199.716-119.83 417.588-181.56 624.567zM290.499 905.532c14.525-141.617 32.681-286.865 43.574-432.113 32.681-21.787 68.993-65.362 119.83-58.099-21.787 163.404-32.681 334.071-54.468 497.475-39.943 3.631-79.886 0-108.936-7.262zM617.307 912.795c-21.787-156.142-36.312-341.333-39.943-504.737 43.574 14.525 79.886 32.681 105.305 58.099 7.262 148.879 32.681 286.865 39.943 435.745-39.943 3.631-68.993 10.894-105.305 10.894zM450.272 840.171c3.631-68.993 14.525-145.248 21.787-217.872s7.262-148.879 32.681-214.241c7.262 0 14.525 0 25.418 0 14.525 141.617 25.418 294.128 36.312 446.638-39.943 0-79.886 0-119.83 0 0-7.262 0-10.894 3.631-14.525zM290.499 549.674c-14.525 94.411-21.787 199.716-32.681 297.759-39.943-10.894-79.886-10.894-116.199-21.787 10.894-79.886 25.418-152.511 32.681-236.028 29.050 0 65.362 7.262 90.78-3.631 10.894-3.631 10.894-43.574 25.418-36.312zM729.874 527.887c10.894 18.156 14.525 43.574 32.681 58.099 18.156 7.262 54.468 3.631 79.886 3.631 7.262 61.73 21.787 116.199 29.050 174.298-39.943 0-76.255 10.894-119.83 10.894-3.631-87.149-21.787-170.667-21.787-246.922zM265.080-24.056c163.404 0 330.44 0 490.213 0 54.468 192.454 108.936 381.276 163.404 573.73-43.574 0-87.149 0-130.723 0-39.943-94.411-116.199-174.298-236.028-185.191-159.773-14.525-268.709 68.993-312.284 185.191-43.574-3.631-98.043 3.631-134.355-3.631 54.468-188.823 108.936-381.276 159.773-570.099z" />
<glyph unicode="&#x64;" glyph-name="pizza" d="M7.186-58.609c-7.186 46.709 21.558 89.825 35.93 129.347 86.232 201.207 176.056 409.6 262.288 625.179 14.372 35.93 35.93 79.046 53.895 125.754 10.779 39.523 28.744 136.533 68.267 129.347 147.312-25.151 283.846-118.568 380.856-211.986 64.674-64.674 129.347-168.87 176.056-273.067 10.779-32.337 39.523-89.825 32.337-114.975s-86.232-43.116-125.754-57.488c-222.765-75.453-423.972-168.87-632.365-255.102-43.116-17.965-86.232-35.93-125.754-50.302-39.523-21.558-79.046-50.302-125.754-46.709zM431.158 915.089c-14.372-43.116-28.744-79.046-39.523-125.754 226.358-82.639 380.856-237.137 463.495-463.495 46.709 10.779 82.639 25.151 122.161 39.523-89.825 276.66-269.474 459.902-546.133 549.726zM373.671 753.405c-14.372-35.93-28.744-71.86-43.116-107.789 79.046 0 129.347-39.523 136.533-104.196 14.372-125.754-143.719-183.242-219.172-89.825-25.151-53.895-43.116-114.975-71.86-168.87 125.754 3.593 107.789-179.649-10.779-161.684-21.558 3.593-32.337 21.558-50.302 21.558-14.372-50.302-46.709-100.604-53.895-147.312 104.196 46.709 219.172 82.639 319.775 136.533-25.151 14.372-43.116 28.744-50.302 50.302-64.674 165.277 244.323 186.835 186.835 3.593 100.604 39.523 197.614 82.639 301.811 122.161-79.046 215.579-226.358 366.484-445.53 445.53zM366.485 444.409c111.382 21.558 57.488 208.393-53.895 154.498-17.965-28.744-32.337-64.674-43.116-100.604 17.965-39.523 53.895-61.081 97.011-53.895zM366.485 218.051c3.593-82.639 129.347-79.046 125.754 7.186-3.593 39.523-35.93 61.081-82.639 50.302-39.523-7.186-46.709-35.93-43.116-57.488zM222.765 210.865c-7.186 46.709-89.825 35.93-79.046-28.744 28.744-43.116 89.825-14.372 79.046 28.744z" />
<glyph unicode="&#x65;" glyph-name="salads" d="M177.633 611.701c6.966-254.258 463.238-289.088 640.871-156.735-48.762 76.626-87.075 177.633-156.735 257.741-55.728 66.177-153.252 167.184-250.775 167.184-80.109 3.483-111.456-41.796-142.803-94.041-10.449 13.932-34.83 52.245-45.279 94.041-6.966 31.347-3.483 80.109-41.796 55.728-10.449-80.109 34.83-139.32 66.177-191.565-45.279-20.898-69.66-83.592-69.66-132.354zM268.191 712.708c69.66-62.694 149.769-128.871 240.326-181.116 24.381-13.932 59.211-48.762 90.558-27.864-6.966 38.313-48.762 45.279-76.626 62.694-55.728 34.83-97.524 66.177-153.252 114.939-20.898 17.415-66.177 48.762-69.66 69.66-3.483 48.762 69.66 101.007 132.354 90.558 10.449 0 27.864-6.966 34.83-13.932 135.837-59.211 243.809-243.809 299.537-358.748-160.218-87.075-487.619-59.211-543.347 107.973-17.415 48.762 0 114.939 45.279 135.837zM992.653 486.314c-24.381 69.66-118.422 83.592-191.565 107.973-3.483 0-10.449-3.483-10.449-6.966-3.483-3.483-6.966-6.966-6.966-10.449 31.347-45.279 177.633-41.796 174.15-118.422-3.483-24.381-45.279-48.762-76.626-66.177-167.184-69.66-435.374-73.143-630.422-31.347-73.143 17.415-191.565 41.796-188.082 101.007 0 62.694 83.592 38.313 97.524 97.524-24.381 24.381-55.728-3.483-76.626-17.415-24.381-17.415-48.762-34.83-55.728-59.211-24.381-94.041 24.381-205.497 48.762-254.258 38.313-73.143 76.626-135.837 132.354-181.116 132.354-111.456 400.544-111.456 546.83-34.83 76.626 38.313 135.837 114.939 174.15 184.599 27.864 52.245 90.558 198.531 62.694 289.088zM720.98 40.491c-135.837-59.211-351.782-52.245-470.204 24.381-90.558 59.211-160.218 195.048-184.599 323.918 0 0 0 0 3.483-3.483 195.048-107.973 640.871-125.388 853.333-17.415 10.449 6.966 20.898 24.381 31.347 13.932-38.313-149.769-101.007-282.122-233.361-341.333z" />
<glyph unicode="&#x66;" glyph-name="tacos" d="M1007.268 357.647c-6.693 36.81-33.464 53.542-36.81 83.66-13.386 56.889 6.693 90.353-13.386 130.51-10.039 26.771-26.771 50.196-46.85 63.582-16.732 16.732-46.85 13.386-73.621 33.464-20.078 13.386-23.425 40.157-40.157 60.235-10.039 16.732-33.464 33.464-53.542 43.503-30.118 13.386-60.235 10.039-87.007 16.732-56.889 16.732-73.621 56.889-133.856 56.889-16.732 0-33.464 0-53.542-6.693-33.464-10.039-53.542-36.81-93.699-50.196-30.118-6.693-56.889-3.346-90.353-16.732-23.425-10.039-46.85-30.118-56.889-43.503-13.386-13.386-20.078-46.85-40.157-60.235-30.118-23.425-56.889-16.732-83.66-43.503-26.771-23.425-50.196-56.889-53.542-93.699-3.346-23.425 10.039-46.85 3.346-83.66-3.346-40.157-46.85-63.582-46.85-120.471 0-3.346 0-3.346 0-6.693-6.693-50.196 33.464-73.621 43.503-110.431 13.386-63.582-13.386-123.817 46.85-143.895 46.85-16.732 140.549-3.346 207.477-3.346 140.549 0 264.366 0 414.954 0 76.967 0 163.974-13.386 207.477 3.346 60.235 20.078 36.81 66.928 50.196 140.549 3.346 43.503 46.85 76.967 30.118 150.588zM53.543 310.797c-3.346-33.464-10.039 20.078-6.693 43.503 6.693 16.732 20.078 30.118 23.425 33.464 6.693 13.386-13.386-56.889-16.732-76.967zM147.242 611.973c20.078 10.039 43.503 10.039 63.582 26.771 23.425 16.732 33.464 60.235 63.582 83.66 33.464 23.425 83.66 20.078 117.124 30.118 53.542 16.732 83.66 76.967 163.974 46.85 26.771-10.039 46.85-36.81 73.621-46.85 50.196-16.732 97.046-6.693 127.163-40.157 23.425-23.425 30.118-60.235 50.196-73.621 20.078-16.732 50.196-13.386 80.314-33.464 43.503-33.464 53.542-97.046 40.157-163.974-76.967 140.549-204.131 264.366-408.261 264.366-214.17 0-348.026-120.471-424.993-267.712-16.732 76.967 0 143.895 53.542 174.013zM923.608 106.666c-190.745-13.386-408.261-6.693-622.431-6.693-50.196 0-177.359-13.386-200.784 6.693-16.732 13.386-10.039 66.928-10.039 83.66 0 26.771-3.346 66.928 0 90.353 16.732 217.516 194.092 381.49 411.608 384.837 230.902 3.346 414.954-167.32 431.686-384.837 6.693-56.889 3.346-113.778-10.039-174.013zM973.804 300.758c-10.039 26.771-10.039 63.582-26.771 87.007 16.732 6.693 30.118-50.196 26.771-87.007zM351.373 367.686c-3.346 20.078-16.732 36.81-46.85 33.464-23.425-6.693-36.81-20.078-36.81-33.464-6.693-66.928 90.353-56.889 83.66 0zM210.824 310.797c-26.771 0-36.81-10.039-36.81-30.118-10.039-70.275 87.007-56.889 76.967 3.346-3.346 16.732-13.386 30.118-40.157 26.771zM314.562 253.908c-53.542-20.078-10.039-76.967 20.078-73.621 43.503 0 53.542 100.392-20.078 73.621z" />
<glyph unicode="&#x67;" glyph-name="wraps" d="M212.928 634.92c-6.502-58.514 6.502-113.778 9.752-165.791 9.752-104.025 22.756-204.8 39.010-312.076 9.752-87.771 6.502-172.292 74.768-204.8 42.26-16.254 117.029-13.003 182.044-16.254 100.775 0 191.797 6.502 224.305 68.267 16.254 32.508 19.505 87.771 26.006 139.784 22.756 136.533 42.26 325.079 48.762 461.613 0 0 0 3.251 0 6.502-3.251 347.835-572.14 334.832-604.648 22.756zM313.702 761.701c87.771 87.771 289.321 94.273 380.343 22.756 35.759-22.756 91.022-87.771 45.511-136.533-22.756 48.762-65.016 94.273-136.533 81.27-35.759 29.257-91.022 65.016-152.787 45.511-3.251-13.003 0-29.257 6.502-39.010-84.521-13.003-136.533-55.264-172.292-117.029-55.264 32.508-6.502 110.527 29.257 143.035zM469.741 634.92c58.514-16.254 29.257 74.768 22.756 104.025 71.517 0 87.771-58.514 120.279-97.524 13.003 0 13.003 6.502 22.756 13.003 3.251 22.756-9.752 22.756-9.752 42.26 45.511-3.251 68.267-29.257 81.27-71.517-71.517-29.257-169.041-32.508-217.803-87.771-48.762 29.257-110.527 45.511-169.041 61.765 26.006 55.264 68.267 94.273 146.286 97.524 3.251-16.254-3.251-48.762 3.251-61.765zM316.953 17.269c-16.254 32.508-13.003 91.022-22.756 139.784-16.254 136.533-39.010 312.076-45.511 438.857 58.514-42.26 149.537-52.013 214.552-87.771-87.771-130.032-91.022-425.854 6.502-536.381-58.514 6.502-126.781-3.251-152.787 45.511zM729.804 157.053c-6.502-52.013-9.752-130.032-32.508-156.038-32.508-35.759-100.775-19.505-159.289-29.257-113.778 65.016-133.283 269.816-81.27 425.854 13.003 48.762 35.759 104.025 65.016 130.032 65.016 55.264 195.048 32.508 247.060 100.775 16.254-107.276-16.254-338.083-39.010-471.365zM534.756 417.117c-42.26-19.505-16.254-74.768 19.505-71.517 45.511 3.251 42.26 94.273-19.505 71.517zM603.023 306.59c-48.762-16.254 32.508-61.765 22.756-13.003-3.251 13.003-13.003 16.254-22.756 13.003z" />
<glyph unicode="&#x68;" glyph-name="add-to-cart" d="M901.648 704h-169.412v41.412c0 120.471-94.118 214.588-214.588 214.588s-218.353-94.118-218.353-214.588v-214.588h86.588v86.588h173.176v90.353h-173.176v41.412c0 71.529 56.471 128 131.765 128 71.529 0 128-56.471 128-128v-214.588h86.588v86.588h94.118l37.647-598.588h-688.941l33.882 598.588h3.765v86.588h-82.824l-52.706-771.765h869.647z" />
<glyph unicode="&#x69;" glyph-name="arrow-down" d="M550.984 107.532c-20.792 0-41.584 0-62.376 0-25.99 0-36.386 25.99-51.98 41.584-119.553 140.345-249.503 275.492-369.056 415.838-10.396 10.396-20.792 20.792-31.188 31.188-15.594 15.594-31.188 25.99-36.386 57.178 0 5.198 0 5.198 0 10.396 10.396 31.188 31.188 51.98 46.782 67.574 15.594 25.99 31.188 51.98 57.178 57.178 0 0 0 0 5.198 0 20.792-5.198 31.188-15.594 41.584-31.188 83.168-98.761 166.335-187.127 254.701-280.69 15.594-20.792 31.188-36.386 46.782-51.98s36.386-31.188 57.178-36.386c25.99-5.198 51.98 5.198 67.574 20.792 15.594 20.792 31.188 36.386 46.782 57.178 83.168 93.563 166.335 181.929 254.701 280.69 10.396 10.396 15.594 25.99 31.188 31.188 25.99 10.396 41.584-5.198 51.98-25.99 15.594-15.594 25.99-31.188 36.386-46.782s25.99-25.99 25.99-46.782c0-5.198 0-10.396 0-10.396-5.198-25.99-15.594-36.386-31.188-57.178-124.751-140.345-244.305-275.492-369.056-410.64-10.396-10.396-15.594-20.792-25.99-36.386-15.594-20.792-20.792-31.188-46.782-36.386z" />
<glyph unicode="&#x6a;" glyph-name="likes-post" d="M594.511 960.001c8.463 0 16.926 0 25.388 0 71.934-21.157 126.942-143.868 88.859-241.19-16.926-55.008-55.008-84.628-67.702-122.711 33.851-16.926 84.628-8.463 126.942-8.463 46.545 0 97.322 0 131.174-12.694 67.702-21.157 110.017-126.942 55.008-186.182 42.314-46.545 25.388-118.479-12.694-152.331 29.62-50.777-4.231-105.785-29.62-135.405 42.314-148.099-169.256-152.331-287.735-165.025-16.926 0-33.851 0-50.777 0-105.785 8.463-181.95 46.545-287.735 50.777-21.157-29.62-71.934-25.388-135.405-25.388-29.62 0-71.934-4.231-88.859 4.231-46.545 16.926-42.314 71.934-42.314 143.868 0 67.702 0 139.636 0 207.339 0 33.851-4.231 76.165 4.231 101.554 16.926 50.777 63.471 42.314 126.942 42.314 33.851 0 63.471 4.231 88.859 0 16.926 0 29.62-12.694 42.314-12.694 59.24 42.314 59.24 114.248 97.322 173.488 12.694 21.157 33.851 46.545 50.777 67.702 21.157 16.926 46.545 33.851 59.24 55.008 16.926 25.388 25.388 55.008 33.851 88.859 12.694 59.24 12.694 118.479 71.934 126.942zM594.511-4.759c50.777 0 97.322 8.463 143.868 16.926 38.083 8.463 110.017 16.926 114.248 46.545 4.231 12.694-8.463 38.083-4.231 59.24 4.231 25.388 42.314 50.777 42.314 71.934 0 16.926-16.926 38.083-16.926 55.008 4.231 29.62 46.545 50.777 46.545 76.165 0 16.926-33.851 42.314-29.62 67.702 0 21.157 29.62 50.777 29.62 71.934 0 25.388-29.62 38.083-38.083 55.008-63.471 12.694-152.331 0-224.264 4.231-38.083 4.231-84.628 29.62-84.628 63.471-8.463 59.24 59.24 97.322 76.165 160.793 16.926 55.008-4.231 114.248-38.083 152.331 0 0 0 0-4.231 0s-4.231-4.231-4.231-4.231c-12.694-67.702-21.157-122.711-46.545-169.256-29.62-50.777-84.628-76.165-118.479-131.174-16.926-25.388-21.157-67.702-38.083-97.322-12.694-33.851-29.62-59.24-50.777-80.397-8.463-12.694-42.314-25.388-46.545-42.314s0-55.008 0-80.397c0-84.628 0-165.025 0-245.421 105.785 4.231 181.95-50.777 291.967-50.777zM82.511 24.861c50.777 0 101.554 0 152.331 0 0 122.711 0 249.653 0 372.364-50.777 0-97.322 0-152.331 0 0-122.711 0-249.653 0-372.364z" />
<glyph unicode="&#x6b;" glyph-name="load-more-icon" d="M230.978 729.023c57.744 69.293 150.135 130.887 288.722 130.887 134.737 0 230.977-69.293 300.271-153.985-34.647 0-61.594 0-100.090 0-30.797 0-76.992 3.85-80.842-19.248-11.549-50.045 84.692-34.647 123.188-34.647 57.744 0 100.090 0 142.436 0 0 61.594 0 142.436 0 207.88 0 34.647 7.699 80.842-26.947 73.143-30.797 0-19.248-53.895-19.248-96.241 0-38.496 0-73.143 0-100.090-92.391 134.737-315.669 223.278-515.85 130.887-119.338-53.895-207.88-157.835-246.376-300.271-7.699-23.098-38.496-146.286 7.699-146.286 30.797 3.85 23.098 50.045 26.947 80.842 11.549 100.090 53.895 177.083 100.090 227.128zM923.91 474.948c-23.098-3.85-15.398-34.647-19.248-61.594-7.699-88.541-42.346-161.684-84.692-223.278-46.195-57.744-96.241-96.241-177.083-127.038-165.534-57.744-342.616 7.699-423.459 130.887 34.647 0 65.444 0 103.94 0 34.647 0 80.842-7.699 73.143 30.797-3.85 30.797-84.692 19.248-123.188 19.248-50.045 0-96.241 0-142.436 0 0-50.045 0-96.241 0-150.135 0-42.346-11.549-130.887 23.098-130.887 34.647-3.85 23.098 46.195 23.098 80.842 0 42.346 0 76.992 0 115.489 96.241-127.038 300.271-223.278 508.15-138.586 134.737 57.744 238.677 180.932 265.624 358.015 0 38.496 15.398 103.94-26.947 96.241z" />
<glyph unicode="&#x6c;" glyph-name="arrow-left" d="M0.001 411.021h39.822v-34.133h34.133v-39.822h39.822v-34.133h34.133v108.089h876.089v73.956h-876.089v108.089h-34.133v-34.133h-39.822v-39.822h-34.133v-34.133h-39.822z" />
<glyph unicode="&#x6d;" glyph-name="arrow-left-slider" d="M351.614 462.394c0-4.112 0-4.112 0-8.225 0 0 0 0 0 0 0-12.337 4.112-20.562 8.225-28.787l234.41-460.595c12.337-24.675 32.9-28.787 53.462-16.45 16.45 8.225 24.675 32.9 16.45 53.462l-226.185 448.257 226.185 444.145c8.225 20.562 0 45.237-16.45 57.574-20.562 8.225-41.125 0-53.462-16.45l-234.41-464.707c-4.112-4.112-8.225-4.112-8.225-8.225z" />
<glyph unicode="&#x6e;" glyph-name="arrow-right" d="M1024 484.979h-39.822v34.133h-34.133v39.822h-39.822v34.133h-34.133v-108.089h-876.089v-73.956h876.089v-108.089h34.133v34.133h39.822v39.822h34.133v34.133h39.822z" />
<glyph unicode="&#x6f;" glyph-name="map-marker" d="M852.732 664.338c-10.817 61.296-32.451 111.775-64.901 151.437-57.69 79.324-162.254 144.225-295.662 137.014-64.901-3.606-122.592-25.239-165.859-50.479-79.324-50.479-151.437-144.225-158.648-259.606-3.606-64.901 10.817-122.592 25.239-183.887 50.479-180.282 158.648-335.324 266.817-468.732 14.423-18.028 36.056-54.085 54.085-54.085s39.662 39.662 54.085 54.085c18.028 21.634 32.451 43.268 46.873 61.296 90.141 122.592 180.282 266.817 223.549 421.859 14.423 57.69 21.634 126.197 14.423 191.099zM791.436 484.056c-54.085-198.31-173.070-349.746-281.239-490.366-100.958 122.592-201.915 263.211-266.817 432.676-18.028 54.085-36.056 122.592-36.056 191.099 0 86.535 36.056 155.042 82.93 201.915 43.268 46.873 104.563 86.535 191.099 90.141 129.803 10.817 216.338-50.479 270.423-122.592 25.239-36.056 50.479-75.718 57.69-133.408s-3.606-115.38-18.028-169.465zM502.986 740.056c-64.901-3.606-104.563-39.662-126.197-75.718-18.028-36.056-21.634-97.352-3.606-133.408 14.423-32.451 39.662-54.085 68.507-68.507 129.803-64.901 263.211 61.296 205.521 191.099-18.028 46.873-68.507 90.141-144.225 86.535zM528.225 487.662c-75.718-10.817-144.225 54.085-122.592 133.408 10.817 32.451 36.056 72.113 90.141 79.324 64.901 3.606 118.986-39.662 122.592-93.746 7.211-68.507-39.662-111.775-90.141-118.986z" />
<glyph unicode="&#x70;" glyph-name="mail-icon" d="M1015.284 602.689c0 47.932 8.715 117.651-4.357 148.153-13.072 34.86-52.289 61.004-91.506 61.004h-810.485c-56.647-4.357-78.434-26.145-95.864-61.004-13.072-39.217-4.357-100.221-4.357-148.153v-300.664c0-52.289-8.715-108.936 4.357-148.153 17.43-69.719 78.434-69.719 174.298-69.719h653.617c39.217 0 78.434 0 104.579 4.357 26.145 8.715 52.289 26.145 61.004 52.289 13.072 30.502 8.715 100.221 8.715 148.153zM915.063 180.017h-801.77v540.323c0 0 0 4.357 0 4.357h806.128v-544.681zM827.914 580.902c13.072 8.715 39.217 21.787 39.217 30.502 13.072 26.145-8.715 61.004 0 87.149-117.651-61.004-230.945-135.081-352.953-200.443-117.651 69.719-235.302 130.723-352.953 200.443v-91.506c117.651-65.362 235.302-135.081 357.311-200.443 91.506 56.647 204.8 117.651 309.379 174.298z" />
<glyph unicode="&#x71;" glyph-name="marker-hand-drawned" d="M503.635 960c20.078 0 36.81 0 53.542 0 167.32-16.732 264.366-103.739 284.444-267.712 0-20.078 0-36.81 0-56.889-40.157-210.824-133.856-378.144-220.863-545.464-26.771-53.542-50.196-117.124-103.739-153.935-3.346 0-6.693 0-13.386 0-43.503 43.503-73.621 97.046-100.392 150.588-30.118 53.542-56.889 110.431-83.66 167.32-50.196 110.431-113.778 220.863-137.203 358.065 0 16.732 0 36.81 0 53.542 26.771 180.706 143.895 267.712 321.255 294.484zM751.269 822.797c-13.386 16.732-36.81 36.81-43.503 53.542-16.732 26.771-40.157 33.464-73.621 43.503-140.549 40.157-291.137-10.039-358.065-87.007-30.118-36.81-63.582-97.046-66.928-160.627-6.693-80.314 26.771-140.549 56.889-197.438 53.542-107.085 107.085-200.784 160.627-297.83 26.771-50.196 50.196-100.392 83.66-140.549 10.039 6.693 16.732 16.732 16.732 26.771-13.386 26.771-40.157 43.503-53.542 70.275 33.464 16.732 40.157-40.157 70.275-50.196 13.386 43.503-56.889 56.889-46.85 93.699 30.118 0 43.503-53.542 66.928-60.235 23.425 23.425-6.693 43.503-23.425 63.582-16.732 16.732-36.81 30.118-30.118 46.85 20.078 0 33.464-20.078 43.503-36.81 13.386-13.386 23.425-30.118 40.157-43.503 16.732 43.503-13.386 63.582-33.464 90.353-13.386 20.078-33.464 36.81-40.157 53.542 26.771 10.039 36.81-23.425 50.196-40.157 13.386-20.078 30.118-40.157 43.503-53.542 16.732 16.732 0 30.118-13.386 43.503-20.078 26.771-50.196 56.889-63.582 83.66 20.078 20.078 43.503-20.078 60.235-40.157 16.732-23.425 26.771-46.85 46.85-50.196 3.346 6.693 0 23.425 3.346 26.771-13.386 23.425-30.118 40.157-43.503 60.235-16.732 16.732-33.464 36.81-43.503 60.235 3.346 0 3.346 6.693 6.693 6.693 23.425-10.039 36.81-33.464 50.196-53.542s23.425-43.503 43.503-56.889c10.039 3.346 10.039 20.078 16.732 30.118-30.118 50.196-70.275 90.353-100.392 133.856 16.732 16.732 23.425-6.693 33.464-13.386 26.771-36.81 53.542-76.967 76.967-107.085 0 10.039 6.693 16.732 6.693 30.118-23.425 36.81-50.196 73.621-76.967 107.085-6.693 10.039-23.425 16.732-20.078 36.81 16.732 0 26.771-20.078 33.464-30.118 30.118-36.81 53.542-73.621 83.66-103.739 10.039 36.81-20.078 63.582-40.157 90.353s-43.503 53.542-50.196 83.66c13.386 0 23.425-16.732 30.118-30.118 26.771-33.464 46.85-76.967 73.621-110.431 3.346 16.732 20.078 33.464 20.078 50.196 0 6.693-16.732 23.425-23.425 33.464-26.771 33.464-63.582 70.275-73.621 100.392 13.386 13.386 26.771-10.039 36.81-20.078 26.771-30.118 50.196-73.621 73.621-90.353 6.693 6.693 10.039 20.078 13.386 30.118-26.771 33.464-60.235 73.621-87.007 103.739-10.039 10.039-26.771 26.771-16.732 40.157 26.771-10.039 43.503-36.81 60.235-60.235s33.464-50.196 56.889-66.928c3.346 26.771-13.386 40.157-26.771 60.235-23.425 30.118-43.503 53.542-66.928 80.314-6.693 10.039-30.118 30.118-13.386 40.157 50.196-36.81 73.621-100.392 120.471-143.895 20.078 40.157-6.693 53.542-23.425 76.967-23.425 26.771-43.503 53.542-66.928 76.967-13.386 13.386-26.771 26.771-30.118 40.157 20.078 3.346 26.771-16.732 36.81-26.771 36.81-36.81 66.928-76.967 103.739-110.431 0 33.464-23.425 50.196-43.503 73.621-23.425 30.118-50.196 56.889-73.621 87.007-13.386 16.732-26.771 26.771-36.81 46.85 13.386 23.425 40.157-20.078 46.85-30.118 26.771-30.118 46.85-53.542 70.275-83.66 10.039-13.386 20.078-30.118 33.464-36.81 3.346 46.85-20.078 63.582-43.503 87.007-43.503 43.503-87.007 87.007-123.817 127.163 3.346 6.693 3.346 6.693 10.039 10.039 30.118-16.732 53.542-43.503 73.621-70.275 23.425-23.425 40.157-53.542 66.928-76.967 3.346 40.157-26.771 56.889-50.196 80.314zM319.582 802.719c-3.346-23.425-23.425-36.81-36.81-53.542-16.732-20.078-33.464-46.85-30.118-83.66 3.346-16.732 6.693-36.81 13.386-53.542 3.346-16.732 13.386-36.81 0-50.196-26.771 6.693-33.464 43.503-33.464 70.275-6.693 53.542 6.693 93.699 26.771 130.51 16.732 16.732 33.464 50.196 60.235 40.157zM490.249 802.719c43.503 3.346 83.66-16.732 97.046-60.235 13.386-40.157-6.693-100.392-46.85-110.431-40.157-16.732-93.699 3.346-113.778 26.771-40.157 56.889 0 137.203 63.582 143.895zM463.478 719.059c-6.693-26.771 13.386-60.235 30.118-63.582 63.582-16.732 100.392 100.392 16.732 93.699-20.078-3.346-43.503-16.732-46.85-30.118z" />
<glyph unicode="&#x72;" glyph-name="arrow-right-slider" d="M672.386 433.607c0 4.112 0 4.112 0 8.225 0 0 0 0 0 0 0 12.337-4.112 20.562-8.225 28.787l-234.41 460.594c-12.337 24.675-32.9 28.787-53.462 16.45-16.45-8.225-24.675-32.9-16.45-53.462l226.185-448.257-226.185-444.144c-8.225-20.562 0-45.237 16.45-57.574 20.562-8.225 41.124 0 53.462 16.45l234.41 464.707c4.112 4.112 8.225 4.112 8.225 8.225z" />
<glyph unicode="&#x73;" glyph-name="best-deals-menu" d="M1024.001 813.014c0 34.297 0 78.392-4.9 102.89-9.799 24.498-34.297 39.196-68.593 44.096-122.488 0-244.976 0-362.565 0-58.794 0-78.392-34.297-112.689-68.593-132.287-132.287-269.474-269.474-401.761-401.761-29.397-29.397-68.593-58.794-73.493-97.99 0-4.9 0-4.9 0-4.9 4.9-34.297 24.498-48.995 44.096-68.593 112.689-112.689 225.378-220.478 338.067-338.067 19.598-19.598 39.196-44.096 68.593-44.096 34.297 0 58.794 34.297 83.292 58.794 142.086 146.986 274.373 279.273 416.459 416.459 24.498 24.498 58.794 48.995 68.593 78.392 4.9 29.397 4.9 63.694 4.9 102.89 0 78.392 0 142.086 0 220.478zM739.829 523.942c-83.292 0-146.986 68.593-146.986 151.885 0 78.392 63.694 146.986 146.986 146.986 78.392 0 146.986-68.593 146.986-146.986 0-83.292-68.593-151.885-146.986-151.885z" />
<glyph unicode="&#x74;" glyph-name="master-chef" d="M698.959 842.693c-31.771 56.21-85.537 90.425-158.854 105.088h-53.766c-78.205-14.663-129.527-53.766-163.742-107.532-31.771 14.663-56.21 31.771-95.313 36.659-119.752 12.22-207.733-61.098-227.284-168.63v-48.878c17.107-75.761 73.317-114.864 136.859-146.635 36.659-17.107 85.537-21.995 109.976-46.434 51.322-43.99 29.327-136.859 39.103-222.396 100.2-63.542 354.368-63.542 452.124 0 4.888 102.644 0 190.625 53.766 229.728 83.093 63.542 232.172 61.098 229.728 207.733v24.439c-4.888 153.967-200.401 215.064-322.597 136.859zM750.282 471.218c-36.659-46.434-34.215-136.859-34.215-215.064-105.088-43.99-300.601-43.99-408.134 0 2.444 90.425 4.888 197.957-51.322 237.060-24.439 14.663-61.098 24.439-87.981 36.659-63.542 26.883-153.967 68.43-141.747 173.518 9.776 119.752 171.074 200.401 285.938 112.42-26.883-46.434-21.995-129.527 0-180.85 4.888-14.663 21.995-53.766 39.103-46.434 17.107 9.776-19.551 58.654-21.995 65.986-46.434 124.64 39.103 254.167 161.298 266.387 100.2 12.22 161.298-43.99 200.401-112.42 117.308 85.537 298.158 31.771 305.489-105.088 7.332-173.518-175.962-139.303-246.835-232.172zM769.833 568.975c-73.317-17.107-117.308-63.542-117.308-151.523 4.888-4.888 17.107 0 24.439-2.444 0 78.205 39.103 114.864 97.757 131.971 2.444 12.22-7.332 12.22-4.888 21.995zM417.909 300.144c-31.771-7.332-78.205 31.771-75.761-14.663 24.439-2.444 46.434-9.776 70.874-12.22 4.888 4.888 2.444 17.107 4.888 26.883zM620.754 300.144c0-12.22 4.888-12.22 4.888-21.995 24.439 0 46.434 4.888 65.986 12.22 0 9.776-4.888 12.22-4.888 19.551-26.883 0-43.99-7.332-65.986-9.776zM474.119 268.373h92.869v26.883h-92.869zM542.549 94.855c-7.332 0-21.995-7.332-29.327-7.332-19.551 0-36.659 14.663-53.766 14.663-68.43 0-124.64-78.205-215.064-41.547 39.103-53.766 185.737-112.42 263.943-51.322 17.107-14.663 41.547-24.439 68.43-29.327h48.878c65.986 14.663 117.308 39.103 156.41 80.649-100.2-39.103-151.523 48.878-239.504 34.215zM547.437 14.206c-12.22 2.444-24.439 21.995-36.659 24.439-14.663 0-29.327-19.551-41.547-24.439-48.878-21.995-100.2-4.888-139.303 17.107 58.654 9.776 117.308 70.874 180.85 29.327 65.986 41.547 119.752-21.995 183.294-29.327-41.547-24.439-97.757-39.103-146.635-17.107z" />
<glyph unicode="&#x75;" glyph-name="menu-icon" d="M0 840.717v-157.821h1024v157.821zM0 370.925h1024v157.821h-1024zM0 55.283h1024v157.821h-1024z" />
<glyph unicode="&#x76;" glyph-name="best-quality" d="M748.307 676.923c12.308-17.231 34.462-29.538 51.692-39.385 19.692-12.308 41.846-27.077 64-27.077 9.846 24.615-24.615 29.538-46.769 41.846s-46.769 41.846-66.462 34.462c2.462-4.923-2.462-4.923-2.462-9.846zM726.154 640c0-2.462-2.462-4.923-7.385-7.385 7.385-22.154 36.923-29.538 56.615-41.846s41.846-39.385 64-22.154c-27.077 34.462-71.385 51.692-113.231 71.385zM758.154 558.769c-19.692 12.308-36.923 27.077-56.615 34.462-2.462 0-2.462 0-4.923 0-17.231-19.692 32-41.846 51.692-51.692 22.154-14.769 44.308-34.462 61.538-22.154-4.923 22.154-34.462 27.077-51.692 39.385zM120.615 315.077c-7.385-2.462-2.462-14.769-4.923-22.154 64-4.923 147.692-4.923 211.692 0 0 4.923 0 12.308 0 19.692-66.462 4.923-140.308 0-206.769 2.462zM297.846 199.385c-19.692-2.462-27.077-9.846-32-12.308-44.308-56.615 56.615-91.077 73.846-44.308 9.846 34.462-17.231 59.077-41.846 56.615zM283.077 147.693c-12.308 22.154 14.769 39.385 32 24.615 12.308-22.154-14.769-41.846-32-24.615zM492.307 199.385c-49.231-4.923-54.154-81.231 0-81.231 56.615-4.923 54.154 86.154 0 81.231zM480 147.693c-12.308 22.154 14.769 39.385 29.538 24.615 12.308-22.154-14.769-41.846-29.538-24.615zM679.384 196.923c-19.692-7.385-27.077-22.154-27.077-34.462-2.462-61.538 81.231-54.154 81.231-4.923 0 27.077-17.231 51.692-54.154 39.385zM679.384 142.769c0 4.923-2.462 7.385-4.923 9.846 4.923 66.462 76.308-22.154 4.923-9.846zM398.769 123.077c-64-2.462-46.769-83.692 2.462-81.231 56.615 2.462 41.846 83.692-2.462 81.231zM381.538 71.385c-12.308 22.154 14.769 39.385 29.538 24.615 12.308-22.154-12.308-39.385-29.538-24.615zM608 123.077c-7.385 2.462-14.769 2.462-27.077-2.462-51.692-17.231-17.231-91.077 27.077-76.308 46.769 12.308 27.077 73.846 0 78.769zM608 68.923c-7.385-2.462-19.692-2.462-27.077 0 0 4.923 0 7.385-4.923 9.846-2.462 22.154 17.231 29.538 34.462 22.154 4.923-9.846 4.923-22.154-2.462-32zM1021.538 812.308c2.462 17.231-44.308 64-54.154 64-17.231 2.462-34.462-22.154-46.769-32-17.231-14.769-29.538-27.077-41.846-39.385-7.385 27.077 22.154 54.154 17.231 78.769-7.385 22.154-46.769 17.231-68.923 27.077 0 0 0 0 0 2.462-4.923 0-9.846 0-17.231 0-19.692-34.462-22.154-86.154-39.385-125.538 0-9.846-14.769 9.846-22.154 7.385-56.615-88.615-115.692-187.077-167.385-275.692-7.385-12.308-12.308-34.462-29.538-34.462-14.769 83.692 4.923 196.923-9.846 278.154-29.538 9.846-22.154-39.385-22.154-64 0-71.385 0-157.538 0-214.154-17.231 0-36.923 0-56.615 0-2.462 91.077 7.385 194.462-4.923 278.154-29.538 9.846-19.692-41.846-19.692-64 0-71.385 2.462-164.923-4.923-211.692-9.846 125.538-93.538 209.231-211.692 201.846-103.385-9.846-177.231-91.077-179.692-204.308-17.231-4.923-39.385 0-41.846-17.231 0-4.923 0-9.846 0-12.308 7.385-27.077 9.846-71.385 19.692-120.615 9.846-59.077 7.385-123.077 81.231-103.385 4.923-27.077 12.308-68.923 19.692-110.769 7.385-56.615 2.462-125.538 41.846-137.846 59.077 0 118.154 0 174.769 0 19.692 0 39.385 0 56.615 0 140.308 0 280.615 0 418.462 0 32 7.385 29.538 39.385 34.462 78.769 7.385 56.615 19.692 118.154 24.615 169.846 73.846-19.692 68.923 64 78.769 118.154 7.385 51.692 17.231 91.077 14.769 125.538-14.769 22.154-68.923 7.385-105.846 12.308 32 59.077 66.462 115.692 98.462 172.308 7.385 9.846-2.462 14.769-2.462 24.615 14.769 14.769 36.923 24.615 46.769 44.308 0 19.692-17.231 24.615-24.615 36.923 9.846 22.154 41.846 19.692 44.308 46.769zM243.692 664.616c96-4.923 157.538-76.308 160-179.692-36.923-4.923-73.846 4.923-115.692 0-7.385 14.769-12.308 39.385-34.462 44.308-32 7.385-56.615-12.308-59.077-44.308-46.769 0-91.077-4.923-130.462 0 0 110.769 76.308 184.615 179.692 179.692zM260.923 484.923c-14.769 0-29.538-2.462-44.308 0-2.462 27.077 49.231 27.077 44.308 0zM812.307 7.385c-214.154 0-455.385-2.462-652.308 0-14.769 71.385-22.154 150.154-34.462 221.538 224 2.462 489.846-2.462 723.692 0-12.308-73.846-19.692-150.154-36.923-221.538zM945.231 460.308c-12.308-68.923-22.154-140.308-34.462-206.769-273.231 0-588.308-2.462-854.154 0-12.308 68.923-22.154 137.846-34.462 204.308 123.077 9.846 268.308 2.462 416 4.923 2.462-24.615-7.385-61.538 2.462-73.846 39.385-7.385 14.769 49.231 22.154 73.846 17.231 0 36.923 0 56.615 0 2.462-24.615-7.385-61.538 4.923-73.846 36.923-7.385 12.308 49.231 19.692 73.846 137.846-4.923 260.923 0 401.231-2.462zM829.538 484.923c-76.308-2.462-152.615 4.923-238.769-2.462 44.308 93.538 110.769 187.077 162.462 283.077 64-32 120.615-68.923 182.154-103.385-34.462-61.538-68.923-120.615-105.846-177.231zM974.769 731.077c-9.846-17.231-27.077-27.077-44.308-39.385-46.769 24.615-93.538 51.692-137.846 81.231 7.385 41.846 19.692 78.769 29.538 115.692 17.231-2.462 32-7.385 49.231-12.308-4.923-27.077-36.923-91.077 2.462-93.538 32-4.923 61.538 56.615 86.154 66.462 14.769-7.385 24.615-22.154 34.462-36.923-27.077-14.769-59.077-56.615-19.692-81.231z" />
<glyph unicode="&#x77;" glyph-name="on-time" d="M779.721 740.395c9.87 14.805 12.337 66.622-4.935 76.492-46.882 0-93.764 0-143.113 0-9.87-12.337-7.402-51.817-4.935-74.024 41.947-9.87 108.569-4.935 152.983-2.467zM646.477 794.679c39.48 0 78.959 0 118.439 0 0-12.337 0-22.207 0-34.545-39.48 0-78.959 0-118.439 0 0 9.87 0 22.207 0 34.545zM927.769 700.915c-24.675 12.337-44.414 27.142-69.089 37.012-2.467-7.402-7.402-12.337-7.402-22.207 24.675-7.402 41.947-24.675 64.154-34.545 2.467 9.87 9.87 9.87 12.337 19.74zM493.494 681.175c19.74 9.87 34.545 24.675 59.219 32.077 0 9.87-4.935 12.337-7.402 19.74-24.675-9.87-51.817-19.74-64.154-41.947 2.467-2.467 2.467-9.87 12.337-9.87zM725.436 715.72c-140.646 9.87-249.214-71.557-298.564-157.918-7.402-7.402-7.402-24.675-22.207-29.61-24.675 17.272 4.935 14.805 0 37.012-39.48-2.467-69.089-24.675-96.231-46.882-41.947-44.414-69.089-118.439-54.284-189.995 14.805-81.427 81.427-145.581 162.853-160.386 17.272-4.935 41.947 2.467 59.219-4.935 17.272-2.467 24.675-17.272 39.48-29.61-170.255-24.675-298.564 76.492-303.499 236.877-2.467 128.308 83.894 202.333 180.125 244.28 0 4.935-4.935 9.87-4.935 14.805-108.569-32.077-204.8-125.841-192.463-281.292 9.87-148.048 150.516-268.954 320.771-239.345 7.402 2.467 17.272 7.402 27.142 7.402 14.805 0 34.545-12.337 51.817-17.272 17.272-7.402 37.012-14.805 51.817-17.272 39.48 0 76.492 0 113.504 0 148.048 37.012 241.812 125.841 264.019 288.694 0 17.272 0 34.545 0 51.817-24.675 162.853-123.373 281.292-298.564 293.629zM370.121 535.595c14.805-7.402 22.207-22.207 32.077-34.545-4.935-7.402-7.402-19.74-9.87-29.61-22.207 7.402-34.545 27.142-51.817 37.012 4.935 14.805 19.74 17.272 29.61 27.142zM318.304 493.648c27.142-12.337 44.414-34.545 66.622-54.284 2.467-7.402-4.935-9.87-2.467-19.74-34.545 7.402-64.154 14.805-96.231 24.675 9.87 19.74 22.207 34.545 32.077 49.349zM281.292 424.559c2.467 0 2.467-2.467 2.467-2.467 17.272-2.467 39.48-7.402 56.752-12.337 14.805-4.935 39.48-7.402 44.414-24.675-27.142-12.337-71.557-4.935-111.036-4.935 0 17.272 2.467 34.545 7.402 44.414zM276.357 357.937c37.012 0 78.959 2.467 108.569-4.935 2.467-22.207-27.142-22.207-44.414-27.142-17.272-7.402-39.48-12.337-56.752-14.805-4.935 9.87-12.337 32.077-7.402 46.882zM293.629 291.315c32.077 9.87 64.154 19.74 98.699 27.142 0-2.467 0-9.87 4.935-9.87-22.207-24.675-49.349-44.414-76.492-61.687-9.87 14.805-22.207 24.675-27.142 44.414zM340.511 229.628c0 2.467 46.882 44.414 64.154 49.349 14.805-27.142-14.805-49.349-19.74-76.492-4.935 2.467-44.414 17.272-44.414 27.142zM404.665 195.084c4.935 14.805 14.805 24.675 19.74 39.48 17.272-9.87 19.74-34.545 39.48-44.414-19.74-7.402-44.414 0-59.219 4.935zM1004.26 375.209c-9.87-150.516-120.906-259.084-261.552-276.357-177.658-19.74-372.588 128.308-335.576 352.848 19.74 111.036 103.634 197.398 199.865 229.475 17.272 4.935 39.48 9.87 66.622 12.337 103.634 9.87 187.528-29.61 241.812-83.894 51.817-51.817 96.231-130.776 88.829-234.41zM715.567 609.619c4.935 14.805 2.467 39.48 2.467 59.219-34.545 17.272-24.675-39.48-22.207-59.219 7.402 0 12.337 0 19.74 0zM641.542 626.891c-81.427-24.675-138.178-76.492-165.32-155.451 7.402-2.467 12.337-7.402 19.74-4.935 27.142 71.557 81.427 118.439 155.451 143.113-7.402 2.467 0 19.74-9.87 17.272zM792.058 621.956c-4.935-4.935-7.402-12.337-9.87-22.207 71.557-22.207 113.504-71.557 138.178-138.178 7.402 0 12.337 2.467 19.74 4.935-24.675 76.492-74.024 128.308-148.048 155.451zM885.822 392.481c0 4.935 0 7.402 0 12.337-27.142 4.935-66.622 4.935-101.166 4.935-12.337 0-32.077-9.87-37.012 9.87 29.61 32.077 74.024 51.817 101.166 81.427-4.935 4.935-4.935 14.805-12.337 14.805-37.012-27.142-69.089-54.284-106.101-78.959-49.349 34.545-101.166-34.545-64.154-74.024 29.61-32.077 76.492-9.87 91.296 27.142 44.414-2.467 91.296-2.467 128.308 2.467zM710.632 370.274c-29.61-4.935-49.349 37.012-17.272 49.349 46.882 17.272 46.882-44.414 17.272-49.349zM83.894 476.375c-34.545 0-64.154 0-81.427 0 0-9.87 0-17.272 0-24.675 51.817 2.467 115.971-7.402 157.918 4.935 9.87 29.61-49.349 19.74-76.492 19.74zM135.711 360.404c9.87 29.61-37.012 19.74-64.154 19.74-29.61 0-56.752 0-71.557 0 0-7.402 0-14.805 0-22.207 44.414 2.467 101.166-7.402 135.711 2.467zM483.624 340.665c-7.402 2.467-7.402-4.935-12.337-2.467 17.272-83.894 74.024-148.048 152.983-175.19 0 9.87 7.402 9.87 4.935 19.74-34.545 17.272-64.154 34.545-88.829 61.687s-37.012 61.687-56.752 96.231zM782.188 177.812c2.467-4.935 4.935-9.87 4.935-14.805 78.959 27.142 128.308 78.959 152.983 157.918-7.402 0-9.87 4.935-17.272 4.935-24.675-71.557-78.959-113.504-140.646-148.048zM0 286.38c0-7.402 0-14.805 0-22.207 54.284 0 108.569 0 160.386 0 0 7.402 0 14.805 0 22.207-49.349 4.935-106.101 0-160.386 0zM718.034 190.149c-34.545 19.74-24.675-39.48-22.207-56.752 7.402 0 12.337 0 19.74 0 4.935 14.805 2.467 39.48 2.467 56.752z" />
<glyph unicode="&#x78;" glyph-name="order-complete" d="M1000.091 504.262c-5.626 87.209-33.758 157.538-70.33 219.429-11.253-5.626-25.319-22.505-30.945-36.571 59.077-87.209 73.143-236.308 42.198-348.835-30.945-104.088-101.275-191.297-180.044-244.747-84.396-59.077-210.989-95.648-340.396-70.33-112.527 22.505-199.736 81.582-264.44 160.352-61.89 78.769-109.714 191.297-95.648 326.33 11.253 118.154 64.703 216.615 140.659 284.132 73.143 67.516 174.418 118.154 306.637 120.967 135.033 2.813 225.055-53.451 306.637-118.154 5.626 11.253 19.692 19.692 25.319 33.758-78.769 73.143-180.044 123.78-326.33 129.407-2.813 0-5.626 0-8.44 0-149.099-8.44-261.626-61.89-340.396-143.472-78.769-78.769-140.659-185.67-149.099-334.769 0-11.253 0-25.319 0-36.571 14.066-174.418 84.396-292.571 194.11-376.967 104.088-78.769 286.945-132.22 450.11-75.956 137.846 45.011 244.747 143.472 301.011 270.066 28.132 64.703 47.824 151.912 39.385 241.934zM322.113 487.382c-5.626 5.626-16.879 22.505-22.505 22.505s-25.319-33.758-28.132-33.758c73.143-67.516 143.472-135.033 216.615-202.549 151.912 185.67 309.45 365.714 461.363 548.571-11.253 11.253-19.692 19.692-33.758 28.132-143.472-171.604-286.945-343.209-436.044-512-45.011 45.011-104.088 101.275-157.538 149.099z" />
<glyph unicode="&#x79;" glyph-name="close-delete" d="M1024.001 26.763l-423.564 423.564 418.909 423.564-88.436 83.782-418.909-418.909-423.564 418.909-83.782-83.782 418.909-423.564-423.564-423.564 88.436-88.436 423.564 423.564 423.564-423.564z" />
<glyph unicode="&#x7a;" glyph-name="comments" d="M125.755-51.426c-7.186 0-14.372 0-21.558 0-35.93 7.186-75.453 0-86.232 28.744-17.965 43.116 21.558 79.046 46.709 100.604 28.744 21.558 61.081 43.116 75.453 71.86 7.186 10.779 14.372 32.337 14.372 46.709 0 17.965-32.337 39.523-43.116 53.895-50.302 61.081-82.639 125.754-89.825 215.579-10.779 136.533 43.116 229.951 104.196 301.811s147.312 125.754 255.102 154.498c114.975 25.151 255.102 10.779 348.519-32.337 89.825-39.523 168.87-104.196 219.172-190.428s75.453-208.393 35.93-326.961c-32.337-104.196-97.011-176.056-179.649-229.951s-183.242-93.418-323.368-82.639c-14.372 0-39.523 7.186-53.895 3.593-7.186 0-21.558-10.779-28.744-17.965-79.046-50.302-158.091-86.232-273.067-97.011zM348.52 106.665c17.965 10.779 43.116 35.93 61.081 39.523 14.372 0 32.337-3.593 46.709-3.593 122.161-14.372 222.765 17.965 301.811 64.674 79.046 53.895 150.905 132.94 165.277 255.102 17.965 143.719-53.895 240.73-122.161 298.218-75.453 64.674-176.056 111.382-323.368 104.196-172.463-14.372-294.625-107.789-352.112-229.951-32.337-71.86-39.523-161.684-10.779-240.73 17.965-53.895 46.709-93.418 86.232-132.94 10.779-10.779 25.151-25.151 32.337-39.523 10.779-43.116-14.372-93.418-32.337-118.568s-46.709-50.302-68.267-68.267c-3.593-3.593-7.186-3.593-7.186-7.186 97.011 7.186 161.684 35.93 222.765 79.046z" />
</font>
</defs>
</svg>
